<?xml version="1.0" standalone="no"?>
<!DOCTYPE svg PUBLIC "-//W3C//DTD SVG 1.1//EN" "http://www.w3.org/Graphics/SVG/1.1/DTD/svg11.dtd">
<svg xmlns="http://www.w3.org/2000/svg">
<metadata>Generated by Fontastic.me</metadata>
<defs>
<font id="dark-dashboard" horiz-adv-x="512">
<font-face font-family="dark-dashboard" units-per-em="512" ascent="480" descent="-32"/>
<missing-glyph horiz-adv-x="512" />

<glyph glyph-name="bars" unicode="&#97;" d="M426 471c-40 0-71-31-71-71 0-39 32-70 71-70 38 0 70 32 70 71 0 39-31 70-70 70z m0-125c-31 0-56 24-56 55 0 30 26 54 56 54 30 0 55-24 55-55 0-30-25-54-55-54z m22 44c-1 1-1 2-2 4 0 1-1 2-2 3-1 1-1 2-2 3-1 1-2 2-3 2-1 1-3 2-4 2-1 1-2 2-4 2-1 1-3 1-4 2 0 0-1 0-1 1-1 0-2 0-2 1-1 0-2 0-2 1-1 0-1 1-2 1 0 0-1 1-1 2 0 0 0 1 0 2 0 1 0 1 0 2 0 1 0 2 0 2 1 1 1 2 1 2 1 1 1 1 2 2 0 0 1 1 2 1 1 0 2 0 2 0 1 0 1 0 2 0 0 0 1 0 1 0 1 0 2 0 3 0 1 0 2-1 2-1 1 0 2 0 2 0 1 0 2-1 2-1l2-1 1 3 1 8 0 2-2 0c0 0-1 1-2 1 0 0-1 0-2 0 0 0-1 1-2 1-1 0-2 0-3 0l0 0 0 9-12 0 0-9 0 0c-2-1-3-1-5-2-1-1-2-2-3-3-1-1-2-2-3-3-1-1-1-3-2-4 0-1-1-3-1-4-1-2-1-4-1-5 0-2 0-3 1-4 0-1 0-2 1-4 1-1 2-2 2-3 1-1 2-2 3-3 0-1 1-2 3-3 1-1 2-1 3-1 2-1 3-2 4-2 2-1 3-1 4-2 1 0 1 0 2-1 0 0 1 0 2-1 0 0 1-1 1-1 1 0 1-1 2-1 0-1 0-1 1-2 0-1 0-2 0-3 0-1 0-1 0-2 0 0 0-1-1-2 0 0-1-1-1-1-1-1-1-1-2-2-1 0-2 0-2-1-1 0-1 0-2 0-1 0-1 0-2 0-1 0-2 0-2 0-1 0-2 0-3 0-1 0-2 0-2 0-1 0-2 1-3 1-1 1-2 1-3 1 0 0-1 1-1 1-1 0-1 0-2 0l-3 2 0-4-1-9 0-1 1 0c2 0 3 0 5-1 1 0 2-1 3-1 1 0 2 0 4-1 1 0 2 0 4 0l1 0 0-10 11 0 0 10 1 0c1 1 3 1 4 2 2 1 3 2 4 2 1 1 2 2 3 4 1 1 1 2 2 4 1 1 1 3 2 4 0 2 0 3 0 5 0 1 0 2 0 4z m-56-69c-3 4-8 4-11 2l-79-63-101 42c-2 1-5 1-7-1l-108-77c-3-2-4-7-2-11 1-2 4-3 6-3 2 0 3 1 5 2l104 74 102-42c2-1 6 0 8 1l81 65c4 3 4 8 2 11z m113-264l-36 0 0 223c0 4-3 8-8 8l-71 0c-4 0-7-4-7-8l0-223-27 0 0 146c0 4-3 8-7 8l-72 0c-4 0-7-4-7-8l0-146-27 0 0 157c0 5-3 8-7 8l-71 0c-5 0-8-3-8-8l0-157-26 0 0 112c0 4-3 8-8 8l-71 0c-5 0-8-4-8-8l0-112-36 0c-5 0-8-4-8-8 0-5 3-8 8-8l496 0c5 0 8 3 8 8 0 4-3 8-7 8z m-390 0l-56 0 0 104 56 0z m113 0l-56 0 0 150 56 0z m112 0l-55 0 0 138 55 0z m114 0l-56 0 0 215 56 0z"/>
<glyph glyph-name="cloud" unicode="&#98;" d="M512 371c0 78-63 141-141 141-50 0-95-27-120-67l0 0-228-228 12-12 199 200c-2-11-4-22-4-34 0-36 13-69 36-94l-234-233 12-12 233 234c25-23 58-36 94-36 12 0 23 2 34 4l-202-201 12-12 231 231c40 25 66 69 66 119z m-141-125c-69 0-125 56-125 125 0 69 56 124 125 124 69 0 124-55 124-124 0-69-55-125-124-125z m17 216l-9 0 0 17-16 0 0-17-9 0c-27 0-49-22-49-50 0-27 22-49 49-49l34 0c18 0 33-15 33-34 0-18-15-33-33-33l-34 0c-18 0-33 15-33 33l0 9-16 0 0-9c0-27 22-49 49-49l9 0 0-17 16 0 0 17 9 0c27 0 49 22 49 49 0 28-22 50-49 50l-34 0c-18 0-33 15-33 33 0 19 15 34 33 34l34 0c18 0 33-15 33-34l0-8 16 0 0 8c0 28-22 50-49 50z m-376-256l11-12-11-11-12 11z m182-206l-11 12 10 10 12-11z m-174 8l-12 12 12 12 12-11z m145 78l125 125 12-12-125-125z m-12-36l-12 12 12 11 11-11z m-67 141l-11 12 12 12 11-12z m113 136l12-12-102-101-11 12z m-88-161l-60-60-12 11 61 61z m-83-83l-11 12 11 11 12-11z m467 122l17 0 0-17-17 0z m-33 0l17 0 0-17-17 0z m17 17l16 0 0-17-16 0z m0-34l16 0 0-16-16 0z m-67-83l17 0 0-16-17 0z m-33 0l17 0 0-16-17 0z m17 17l16 0 0-17-16 0z m0-33l16 0 0-17-16 0z m-199 390l16 0 0-17-16 0z m-33 0l16 0 0-17-16 0z m16 16l17 0 0-16-17 0z m0-33l17 0 0-16-17 0z m-108-33l17 0 0-17-17 0z m-33 0l17 0 0-17-17 0z m17 17l16 0 0-17-16 0z m0-34l16 0 0-16-16 0z"/>
<glyph glyph-name="computer" unicode="&#99;" d="M367 34l-60 0 0 43c0 5-4 8-8 8-5 0-9-3-9-8l0-43-68 0 0 43c0 5-4 8-9 8-4 0-8-3-8-8l0-43-60 0c-5 0-8-4-8-8 0-5 3-9 8-9l222 0c5 0 8 4 8 9 0 4-3 8-8 8z m-111 120l0 0c-5 0-8-4-8-9 0-5 4-8 8-8 5 0 9 3 9 8 0 5-4 9-9 9z m156 224c2-2 4-3 6-3 2 0 5 1 6 3 4 3 4 9 0 12l-17 17c-3 3-9 3-12 0-3-3-3-9 0-12z m0-51c2-2 4-3 6-3 2 0 5 1 6 3 4 3 4 8 0 12l-68 68c-3 3-9 3-12 0-4-3-4-9 0-12z m57 168l-426 0c-22 0-43-21-43-43l0-307c0-22 21-43 43-43l426 0c22 0 43 21 43 43l0 307c0 22-21 43-43 43z m26-350c0-12-13-26-26-26l-426 0c-13 0-26 14-26 26l0 307c0 13 13 26 26 26l426 0c13 0 26-13 26-26z m-26 316l-426 0c-5 0-9-4-9-9l0-273c0-5 4-8 9-8l426 0c5 0 9 3 9 8l0 273c0 5-4 9-9 9z m-8-273l-410 0 0 256 410 0z"/>
<glyph glyph-name="contract" unicode="&#100;" d="M367 512l-245 0c-6 0-11-5-11-11 0-6 5-11 11-11l234 0 0-468-334 0 0 468 34 0c6 0 11 5 11 11 0 6-5 11-11 11l-45 0c-6 0-11-5-11-11l0-490c0-6 5-11 11-11l356 0c6 0 11 5 11 11l0 490c0 6-5 11-11 11z m-270-3c-1 0-1 1-2 1 0 1-1 1-2 1 0 0-1 1-2 1-3 1-7-1-10-3-2-2-3-5-3-8 0-1 0-2 0-2 0-1 0-2 1-2 0-1 0-2 1-2 0-1 1-1 1-2 2-2 5-3 8-3 1 0 2 0 2 0 1 0 2 0 2 1 1 0 2 0 2 1 1 0 1 0 2 1 0 1 1 1 1 2 1 0 1 1 1 2 1 0 1 1 1 2 0 0 0 1 0 2 0 3-1 6-3 8z m404-86l-22 0 0 11c0 6-5 11-12 11l0 0 0 56c0 6-5 11-11 11l-44 0c-6 0-11-5-11-11l0-56 0 0c-6 0-11-5-11-11l0-356c0-4 1-7 4-9l30-63c2-4 6-6 10-6 4 0 8 2 10 6l31 63c2 2 4 5 4 9l0 323 11 0 0-56c0-6 5-11 11-11 6 0 11 5 11 11l0 67c0 6-5 11-11 11z m-78 67l22 0 0-45-22 0z m11-453l-14 30 29 0z m22 54l-44 0 0 332 44 0z m-133-24l-112 0c-6 0-11-5-11-11 0-6 5-11 11-11l112 0c6 0 11 5 11 11 0 6-5 11-11 11z m-134 378l-133 0c-6 0-11-5-11-11 0-6 5-11 11-11l133 0c6 0 11 5 11 11 0 6-5 11-11 11z m134-44l-267 0c-6 0-11-5-11-11 0-7 5-12 11-12l267 0c6 0 11 5 11 12 0 6-5 11-11 11z m0-45l-267 0c-6 0-11-5-11-11 0-6 5-11 11-11l267 0c6 0 11 5 11 11 0 6-5 11-11 11z m-134-44l-133 0c-6 0-11-5-11-11 0-7 5-12 11-12l133 0c6 0 11 5 11 12 0 6-5 11-11 11z m312 11c-6 0-11-5-11-11l0-1c0-6 5-11 11-11 6 0 11 5 11 11l0 1c0 6-5 11-11 11z"/>
<glyph glyph-name="controls" unicode="&#101;" d="M73 136l0 358c0 5-4 9-9 9-5 0-9-4-9-9l0-358c-31-4-55-31-55-63 0-35 29-64 64-64 35 0 64 29 64 64 0 32-24 59-55 63z m-9-109c-25 0-46 21-46 46 0 25 21 46 46 46 25 0 46-21 46-46 0-25-21-46-46-46z m201 296l0 171c0 5-4 9-9 9-5 0-9-4-9-9l0-171c-33-3-59-31-59-65 0-34 26-62 59-66l0-174c0-5 4-9 9-9 5 0 9 4 9 9l0 175c31 5 55 32 55 65 0 32-24 60-55 65z m-11-113c-26 0-47 22-47 48 0 26 21 47 47 47 26 0 48-21 48-47 0-26-22-48-48-48z m258 229c0 35-29 64-64 64-35 0-64-29-64-64 0-32 24-59 55-63l0-358c0-5 4-9 9-9 5 0 9 4 9 9l0 358c31 4 55 31 55 63z m-64-46c-25 0-46 21-46 46 0 25 21 46 46 46 25 0 46-21 46-46 0-25-21-46-46-46z"/>
<glyph glyph-name="dashboard" unicode="&#102;" d="M366 296l-125-110c0 0 0 0 0 0-4-4-6-10-6-15 0-12 9-22 21-22 6 0 11 3 16 7l109 125c4 4 4 11 0 15-4 4-10 4-15 0z m-110 131c-141 0-256-115-256-256 0-27 4-53 12-78 2-5 6-8 10-8l468 0c4 0 8 3 10 8 8 25 12 51 12 78 0 141-115 256-256 256z m203-267l31 0c-1-18-3-36-8-53l-452 0c-5 17-7 35-8 53l31 0c6 0 11 5 11 11 0 6-5 10-11 10l-31 0c1 35 11 68 26 98l27-16c2-1 4-2 5-2 4 0 8 2 10 6 3 5 1 11-4 14l-27 16c18 29 42 53 71 71l15-27c2-4 6-5 10-5 1 0 3 0 5 1 5 3 7 9 4 15l-16 27c29 15 62 24 97 26l0-32c0-6 5-10 11-10 6 0 11 4 11 10l0 32c35-2 68-11 97-26l-16-27c-3-6-1-12 4-15 2-1 4-1 5-1 4 0 8 1 10 5l15 27c29-18 53-42 71-71l-27-16c-5-3-7-9-4-14 2-4 6-6 10-6 1 0 3 1 5 2l27 16c15-30 25-63 26-98l-31 0c-6 0-11-4-11-10 0-6 5-11 11-11z"/>
<glyph glyph-name="email" unicode="&#103;" d="M502 433l-492 0c-6 0-10-4-10-10l0-334c0-6 4-10 10-10l492 0c6 0 10 4 10 10l0 334c0 6-4 10-10 10z m-10-295l-59 0c-5 0-10-5-10-10 0-5 5-10 10-10l59 0 0-20-472 0 0 185 234-56c0 0 1-1 2-1 1 0 2 1 2 1l234 56z m0 165l-236-57-236 57 0 71 59 0c5 0 10 5 10 10 0 5-5 10-10 10l-59 0 0 20 472 0z m-374 83c0 1 0 1-1 2 0 0 0 1-1 1 0 1 0 2-1 2 0 0-1 1-1 1-1 1-1 1-2 1-1 0-1 1-2 1-1 0-2 0-4 0 0 0-1-1-1-1-1 0-2 0-2-1-1 0-1-1-2-1 0 0-1-1-1-2 0 0-1-1-1-1 0-1 0-1 0-2 0-1-1-1-1-2 0-3 2-5 3-7 1 0 1-1 2-1 0-1 1-1 2-1 0 0 1-1 1-1 1 0 2 0 2 0 1 0 2 0 2 0 1 0 1 1 2 1 1 0 1 0 2 1 0 0 1 1 1 1 2 2 3 4 3 7 0 1 0 1 0 2z m295-256c0 1 0 1 0 2 0 0-1 1-1 1 0 1-1 2-1 2-1 0-1 1-2 1 0 1-1 1-2 1 0 0-1 1-1 1-2 0-3 0-4 0-1 0-1-1-2-1-1 0-1 0-2-1 0 0-1-1-1-1-1 0-1-1-1-2-1 0-1-1-1-1-1-1-1-1-1-2 0-1 0-1 0-2 0-1 0-1 0-2 0-1 0-1 1-2 0 0 0-1 1-1 0-1 0-2 1-2 0 0 1-1 1-1 1-1 1-1 2-1 1 0 1-1 2-1 0 0 1 0 2 0 0 0 1 0 2 0 0 0 1 1 1 1 1 0 2 0 2 1 1 0 1 1 2 1 0 0 1 1 1 2 0 0 1 1 1 1 0 1 0 1 0 2 0 1 1 1 1 2 0 1-1 1-1 2z"/>
<glyph glyph-name="info" unicode="&#105;" d="M256 512c-141 0-256-115-256-256 0-141 115-256 256-256 141 0 256 115 256 256 0 141-115 256-256 256z m0-480c-124 0-224 100-224 224 0 124 100 224 224 224 124 0 224-100 224-224 0-124-100-224-224-224z m30 326c0-14-11-26-26-26-14 0-26 12-26 26 0 15 12 26 26 26 15 0 26-11 26-26z m-33-69c-9 0-16-7-16-16l0-134c0-9 7-16 16-16 9 0 16 7 16 16l0 134c0 9-7 16-16 16z"/>
<glyph glyph-name="layers" unicode="&#106;" d="M429 270c0-5-4-9-10-9-5 0-9 4-9 9 0 5 4 9 9 9 6 0 10-4 10-9z m-336 0c0-5-4-9-9-9-5 0-9 4-9 9 0 5 4 9 9 9 5 0 9-4 9-9z m28-28c0-5-4-9-9-9-5 0-9 4-9 9 0 5 4 9 9 9 5 0 9-4 9-9z m56 0c0-5-4-9-9-9-5 0-9 4-9 9 0 5 4 9 9 9 5 0 9-4 9-9z m-28-28c0-5-4-9-9-9-5 0-9 4-9 9 0 5 4 9 9 9 5 0 9-4 9-9z m56 0c0-5-4-9-9-9-5 0-9 4-9 9 0 5 4 9 9 9 5 0 9-4 9-9z m28-28c0-5-4-9-9-9-5 0-10 4-10 9 0 5 5 9 10 9 5 0 9-4 9-9z m56 0c0-5-4-9-9-9-5 0-10 4-10 9 0 5 5 9 10 9 5 0 9-4 9-9z m28 28c0-5-4-9-9-9-5 0-10 4-10 9 0 5 5 9 10 9 5 0 9-4 9-9z m-56-56c0-5-4-9-9-9-5 0-10 4-10 9 0 5 5 9 10 9 5 0 9-4 9-9z m84 84c0-5-4-9-9-9-6 0-10 4-10 9 0 5 4 9 10 9 5 0 9-4 9-9z m56 0c0-5-4-9-9-9-6 0-10 4-10 9 0 5 4 9 10 9 5 0 9-4 9-9z m-28-28c0-5-4-9-9-9-6 0-10 4-10 9 0 5 4 9 10 9 5 0 9-4 9-9z m51-8l88 50-90 52 90 51-256 145-256-145 90-51-90-52 90-51-90-51 256-146 256 146-90 51 1 0c0 1 1 1 1 1z m-168 277l218-124-71-41-147-84-218 125z m-152-189c1-3 4-5 8-5 3 0 5 1 6 2l22-12c-5 0-9-4-9-9 0-5 4-9 9-9 5 0 9 4 9 9 0 2 0 3-1 4l96-55c-1-1-2-3-2-5 0-5 5-9 10-9 5 0 9 4 9 9 0 1 0 1 0 1l93 54c1-5 5-8 10-8 5 0 9 4 9 9 0 3-2 6-4 7l21 12c0 0 1 0 2 0 4 0 7 2 8 6l3 2 71-41-18-10c-2 3-5 5-9 5-5 0-9-4-9-9 0-2 1-4 2-5l-37-21-59-34c0 1 1 3 1 4 0 5-4 9-9 9-6 0-10-4-10-9 0-5 4-9 9-9l-21-12c-2 1-4 3-6 3-5 0-10-5-10-10 0-1 1-1 1-2l-43-24-51 29c-2 4-5 7-9 7-1 0-1-1-2-1l-21 12c3 2 4 4 4 7 0 5-4 9-9 9-5 0-9-3-9-8l-94 54c0 0 0 1 0 1 0 5-4 9-9 9-2 0-4-1-6-2l-12 7z m370-140l-218-125-218 125 71 40 147-84 147 84z"/>
<glyph glyph-name="light-bulb" unicode="&#107;" d="M256 512c-106 0-192-86-192-192 0-40 12-78 35-111 22-30 51-53 86-67l8-110 33 0 8-32 44 0 8 32 33 0 8 110c35 14 64 37 86 67 23 33 35 71 35 111 0 106-86 192-192 192z m-18-369l-45 158c1 0 3-1 4-3 5-4 11-9 23-9 12 0 18 5 23 9 4 4 7 7 13 7 6 0 9-3 13-7 5-4 11-9 23-9 12 0 18 5 23 9 1 2 2 3 4 3l-45-158z m73-15l-1-17-108 0-1 17z m-108-32l106 0-1-17-104 0z m63-81l-20 0-4 17 28 0z m30 32l-89 0-1 17 100 0-1-17z m104 171c-20-29-49-51-82-64l-5-1-1-10-22 0 53 191-14 4-5-19c-9-1-15-5-19-9-4-4-7-6-13-6-6 0-9 2-13 6-5 4-11 10-23 10-12 0-18-6-23-10-4-4-7-6-13-6-6 0-9 2-13 6-4 4-10 8-19 9l-5 19-14-4 53-191-22 0-1 10-5 1c-33 13-62 35-82 64-22 30-33 65-33 102 0 98 79 177 177 177 98 0 177-79 177-177 0-37-11-72-33-102z m-106 242c8-2 16-5 23-9l6 14c-8 4-16 7-25 9z m48-5l-8-13c32-21 56-54 64-91l14 3c-9 41-34 78-70 101z"/>
<glyph glyph-name="paper-and-pencil" unicode="&#108;" d="M394 0l-367 0c-5 0-9 4-9 8l0 496c0 4 4 8 9 8l367 0c5 0 9-4 9-8l0-496c0-4-4-8-9-8z m-359 16l351 0 0 480-351 0z m450 25l-36 0c-4 0-8 4-8 8l0 349c0 1 0 2 0 3l18 76c1 4 5 6 8 6 4 0 7-2 8-6l18-76c1-1 1-2 0-3l0-349c0-4-3-8-8-8z m-28 16l20 0 0 334-20 0z m2 350l16 0-8 33z m-121-303l-256 0c-4 0-8 3-8 8 0 4 4 8 8 8l256 0c5 0 9-4 9-8 0-5-4-8-9-8z m0 59l-256 0c-4 0-8 3-8 8 0 4 4 8 8 8l256 0c5 0 9-4 9-8 0-5-4-8-9-8z m0 151l-256 0c-4 0-8 4-8 8 0 5 4 9 8 9l256 0c5 0 9-4 9-9 0-4-4-8-9-8z m0 59l-256 0c-4 0-8 4-8 8 0 5 4 8 8 8l256 0c5 0 9-3 9-8 0-4-4-8-9-8z m0 59l-256 0c-4 0-8 4-8 8 0 4 4 8 8 8l256 0c5 0 9-4 9-8 0-4-4-8-9-8z"/>
<glyph glyph-name="pie-chart" unicode="&#109;" d="M476 409c-42 65-113 103-189 103-6 0-11-5-11-10l0-216c0-4 2-8 6-9 1-1 3-2 5-2 2 0 3 1 5 2l181 118c3 2 4 4 5 7 0 2 0 5-2 7z m-179-105l0 187c62-3 120-34 156-85z m149 46c-3 5-10 6-14 3l-166-108 0 198c0 5-4 10-10 10-52 0-102-18-142-51-54-43-84-107-84-176 0-60 23-117 66-160 43-42 100-66 160-66 60 0 117 24 160 66 43 43 66 100 66 160 0 44-12 87-36 124z m-200 82l0-177-111 138c32 23 71 37 111 39z m10-412c-114 0-206 93-206 206 0 59 25 115 69 154l129-160c3-4 9-5 14-2l172 112c18-31 28-67 28-104 0-113-92-206-206-206z m147 263c-3 5-10 6-14 3l-67-43c-5-3-6-9-3-14 2-3 5-5 9-5 2 0 4 1 5 2l67 43c4 3 6 10 3 14z m31 21c-3 4-9 6-14 3l-4-3c-4-3-6-9-3-14 2-3 6-4 9-4 2 0 4 0 6 1l3 3c5 3 6 9 3 14z"/>
<glyph glyph-name="pie-chart-1" unicode="&#110;" d="M213 478c0-5-4-9-8-9-5 0-9 4-9 9 0 5 4 8 9 8 4 0 8-3 8-8z m-25-26c0-4-4-8-9-8-5 0-8 4-8 8 0 5 3 9 8 9 5 0 9-4 9-9z m-52-51c0-5-3-8-8-8-5 0-9 3-9 8 0 5 4 9 9 9 5 0 8-4 8-9z m-25 26c0-5-4-9-9-9-4 0-8 4-8 9 0 4 4 8 8 8 5 0 9-4 9-8z m0-52c0-4-4-8-9-8-4 0-8 4-8 8 0 5 4 9 8 9 5 0 9-4 9-9z m77 26c0-5-4-8-9-8-5 0-8 3-8 8 0 5 3 9 8 9 5 0 9-4 9-9z m25 26c0-5-4-9-8-9-5 0-9 4-9 9 0 4 4 8 9 8 4 0 8-4 8-8z m-51 0c0-5-4-9-8-9-5 0-9 4-9 9 0 4 4 8 9 8 4 0 8-4 8-8z m51-52c0-4-4-8-8-8-5 0-9 4-9 8 0 5 4 9 9 9 4 0 8-4 8-9z m-51 0c0-4-4-8-8-8-5 0-9 4-9 8 0 5 4 9 9 9 4 0 8-4 8-9z m-77-25c0-5-4-9-8-9-5 0-9 4-9 9 0 5 4 8 9 8 4 0 8-3 8-8z m51 0c0-5-3-9-8-9-5 0-9 4-9 9 0 5 4 8 9 8 5 0 8-3 8-8z m52 0c0-5-4-9-9-9-5 0-8 4-8 9 0 5 3 8 8 8 5 0 9-3 9-8z m-103-51c0-5-4-9-8-9-5 0-9 4-9 9 0 4 4 8 9 8 4 0 8-4 8-8z m-25 25c0-4-4-8-9-8-5 0-8 4-8 8 0 5 3 9 8 9 5 0 9-4 9-9z m76-25c0-5-3-9-8-9-5 0-9 4-9 9 0 4 4 8 9 8 5 0 8-4 8-8z m-25 25c0-4-4-8-9-8-4 0-8 4-8 8 0 5 4 9 8 9 5 0 9-4 9-9z m77-25c0-5-4-9-9-9-5 0-8 4-8 9 0 4 3 8 8 8 5 0 9-4 9-8z m25 25c0-4-4-8-8-8-5 0-9 4-9 8 0 5 4 9 9 9 4 0 8-4 8-9z m-51 0c0-4-4-8-8-8-5 0-9 4-9 8 0 5 4 9 9 9 4 0 8-4 8-9z m85 188l-9-1c-127-8-229-110-237-237l-1-9 247 0z m-17-230l-212 0c1 3 2 7 2 10 2-1 3-2 6-2 4 0 8 4 8 9 0 4-4 8-8 8-1 0-2 0-3 0 4 22 12 43 23 62 1-1 3-2 5-2 5 0 9 4 9 8 0 4-3 7-6 8 5 7 10 14 15 21-1-1-1-2-1-3 0-5 4-8 9-8 4 0 8 3 8 8 0 5-4 9-8 9-2 0-4-1-5-2 14 17 30 31 48 44 0-5 3-8 8-8 5 0 9 4 9 8 0 4-2 6-5 8 6 3 12 7 18 10 1 0 2-1 4-1 3 0 6 3 8 6 21 10 44 16 68 19l0-33c-4 0-8-4-8-9 0-4 4-8 8-8l0-34c-4 0-8-4-8-9 0-5 4-8 8-8l0-35c-4 0-8-3-8-8 0-5 4-9 8-9l0-34c-4 0-8-4-8-8 0-5 4-9 8-9l0-8z m220 141c-45 52-108 84-176 88l-9 1 0-265-265 0 1-9c3-55 25-107 61-149l0 0c4-4 7-8 12-12l13-13c5-4 9-8 13-11 45-35 100-53 156-53 7 0 14 0 20 1 124 9 225 110 235 234 6 69-16 136-61 188z m44-187c-9-115-103-209-219-218-59-5-118 13-165 49-3 2-7 5-11 10l-13 12c-5 4-8 8-11 11-32 37-51 82-57 130l264 0 0 264c60-7 115-36 155-82 42-49 62-111 57-176z"/>
<glyph glyph-name="presentation" unicode="&#111;" d="M68 375l128 0c5 0 9 4 9 9 0 5-4 9-9 9l-128 0c-4 0-8-4-8-9 0-5 4-9 8-9z m0 26l77 0c5 0 9 4 9 9 0 4-4 8-9 8l-77 0c-4 0-8-4-8-8 0-5 4-9 8-9z m137-43c0 5-4 9-9 9l-128 0c-4 0-8-4-8-9 0-4 4-8 8-8l128 0c5 0 9 4 9 8z m307 120l-247 0 0 25c0 5-4 9-9 9-5 0-9-4-9-9l0-25-247 0 0-359 235 0-104-104c-4-4-4-9 0-13 1-1 3-2 6-2 2 0 4 1 6 2l104 105 0-81c0-5 4-9 9-9 5 0 9 4 9 9l0 81 104-105c2-1 4-2 6-2 3 0 5 1 7 2 3 4 3 9 0 13l-105 104 235 0z m-17-341l-478 0 0 324 478 0z m-145 204l39 0-102-102-71 71c-3 3-9 3-12 0l-108-108c-3-3-3-8 0-12 2-1 4-2 6-2 3 0 5 1 6 2l102 102 71-71c1-2 4-3 6-3 2 0 4 1 6 3l108 108 0-39c0-5 4-8 9-8 4 0 8 3 8 8l0 60c0 1 0 2-1 3 0 2-2 4-4 5-1 0-2 0-3 0l-60 0c-5 0-9-3-9-8 0-5 4-9 9-9z"/>
<glyph glyph-name="settings" unicode="&#112;" d="M256 389c-73 0-133-60-133-133 0-73 60-133 133-133 73 0 133 60 133 133 0 73-60 133-133 133z m0-247c-63 0-114 51-114 114 0 63 51 114 114 114 63 0 114-51 114-114 0-63-51-114-114-114z m230 171l-19 0c-5 18-13 35-22 52l14 13c5 5 7 12 7 19 0 7-2 13-7 18l-44 44c-10 10-27 10-37 0l-13-14c-17 9-34 17-52 22l0 19c0 14-12 26-26 26l-62 0c-14 0-26-12-26-26l0-19c-18-5-35-13-52-22l-13 14c-10 10-27 10-37 0l-44-44c-5-5-7-11-7-18 0-7 2-14 7-19l14-13c-9-17-17-34-22-52l-19 0c-14 0-26-12-26-26l0-62c0-14 12-26 26-26l19 0c5-18 13-35 22-52l-14-13c-5-5-7-12-7-19 0-7 2-13 7-18l44-44c10-10 27-10 37 0l13 14c17-9 34-17 52-22l0-19c0-14 12-26 26-26l62 0c14 0 26 12 26 26l0 19c18 5 35 13 52 22l13-14c10-10 27-10 37 0l44 44c5 5 7 11 7 18 0 7-2 14-7 19l-14 13c9 17 17 34 22 52l19 0c14 0 26 12 26 26l0 62c0 14-12 26-26 26z m7-88c0-4-3-7-7-7l-34 0-2-7c-5-21-13-42-25-60l-4-6 24-25c3-2 3-7 0-10l-43-43c-3-3-8-3-10 0l-25 24-6-4c-18-12-39-20-60-25l-7-2 0-34c0-4-3-7-7-7l-62 0c-4 0-7 3-7 7l0 34-7 2c-21 5-42 13-60 25l-6 4-25-24c-2-3-7-3-10 0l-43 43c-3 3-3 8 0 10l24 25-4 6c-12 18-20 39-25 60l-2 7-34 0c-4 0-7 3-7 7l0 62c0 4 3 7 7 7l34 0 2 7c5 21 13 42 25 60l4 6-24 25c-3 2-3 7 0 10l43 43c3 3 8 3 10 0l25-24 6 4c18 12 39 20 60 25l7 2 0 34c0 4 3 7 7 7l62 0c4 0 7-3 7-7l0-34 7-2c21-5 42-13 60-25l6-4 25 24c2 3 7 3 10 0l43-43c3-3 3-8 0-10l-24-25 4-6c12-18 20-39 25-60l2-7 34 0c4 0 7-3 7-7z m-237 126c-52 0-95-43-95-95 0-52 43-95 95-95 52 0 95 43 95 95 0 52-43 95-95 95z m0-171c-42 0-76 34-76 76 0 42 34 76 76 76 42 0 76-34 76-76 0-42-34-76-76-76z"/>
<glyph glyph-name="settings-1" unicode="&#113;" d="M271 262l0 236c0 8-6 14-14 14-8 0-15-6-15-14l0-236c-33-6-58-36-58-71 0-36 25-65 58-72l0-105c0-7 7-14 15-14 8 0 14 7 14 14l0 105c33 7 59 36 59 72 0 35-26 65-59 71z m-14-115c-25 0-45 19-45 44 0 24 20 44 45 44 24 0 44-20 44-44 0-25-20-44-44-44z m-162 236l0 115c0 8-7 14-15 14-8 0-14-6-14-14l0-115c-33-7-59-36-59-72 0-35 26-64 59-71l0-226c0-7 6-14 14-14 8 0 15 7 15 14l0 226c33 7 58 36 58 72 0 35-25 64-58 71z m-15-116c-24 0-44 20-44 44 0 25 20 45 44 45 25 0 45-20 45-45 0-24-20-44-45-44z m366 116l0 115c0 8-6 14-14 14-8 0-15-6-15-14l0-115c-33-7-58-36-58-72 0-35 25-64 58-71l0-226c0-8 7-14 15-14 8 0 14 6 14 14l0 226c33 7 59 36 59 72 0 35-25 64-59 71z m-14-116c-25 0-45 20-45 44 0 25 20 45 45 45 24 0 44-20 44-45 0-24-20-44-44-44z"/>
<glyph glyph-name="three-cells" unicode="&#114;" d="M0 512l0-512 512 0 0 512z m160-480l-128 0 0 448 128 0z m160 0l-128 0 0 448 128 0z m160 0l-128 0 0 448 128 0z"/>
<glyph glyph-name="writing-whiteboard" unicode="&#115;" d="M168 512c-5 0-9-4-9-9l0-9-150 0c-5 0-9-4-9-8l0-318c0-5 4-9 9-9l232 0-81-146c-6-10 10-19 15-8l81 145 81-145c5-11 21-2 15 8l-81 146 232 0c5 0 9 4 9 9l0 318c0 4-4 8-9 8l-150 0 0 9c0 5-4 9-9 9z m-150-35l476 0 0-300-476 0z m26-18c-5 0-9-4-9-9l0-247c0-5 4-9 9-9l424 0c5 0 9 4 9 9l0 247c0 5-4 9-9 9z m9-18l406 0 0-229-406 0z"/>
<glyph glyph-name="magnifying-glass-browser" unicode="&#116;" d="M353 178c32 35 53 83 53 135 0 110-89 199-199 199-110 0-199-89-199-199 0-110 89-199 199-199 44 0 86 15 119 39l148-148c4-3 8-5 13-5 4 0 9 2 12 5 7 7 7 19 0 26z m-309 135c0 90 73 163 163 163 90 0 163-73 163-163 0-90-73-163-163-163-90 0-163 73-163 163z"/>
<glyph glyph-name="new-file" unicode="&#117;" d="M355 473l-176-176c-2-2-3-4-3-6l-16-58c-1-4 1-8 3-11 3-2 5-3 8-3 1 0 2 0 3 1l58 15c2 0 4 1 6 3l176 176c0 0 0 0 0 0 0 0 0 0 0 0l36 36c4 4 4 11 0 16l-44 43c-2 2-4 3-7 3-3 0-6-1-8-3l-36-36c0 0 0 0 0 0 0 0 0 0 0 0z m-131-218l-37-9 9 37 167 167 28-28z m175 230l27-27-20-20-27 27z m43-94c-6 0-11-5-11-11l0-358-350 0 0 426 206 0c7 0 12 5 12 11 0 6-5 11-12 11l-217 0c-6 0-11-5-11-11l0-448c0-6 5-11 11-11l372 0c6 0 11 5 11 11l0 369c0 6-5 11-11 11z"/>
<glyph glyph-name="close" unicode="&#118;" d="M430 36l-404 404c-11 11-11 31 0 41l7 8c11 10 31 10 41 0l405-405c10-10 10-30 0-40l-8-8c-10-13-28-13-41 0z m49 402l-405-405c-10-10-30-10-41 0l-7 8c-11 10-11 31 0 41l404 404c10 11 31 11 41 0l8-7c10-11 10-28 0-41z"/>
<glyph glyph-name="flask" unicode="&#119;" d="M446 86l-134 203 0 177c9 3 16 12 16 22 0 13-11 24-24 24l-96 0c-13 0-24-11-24-24 0-10 7-19 16-22l0-177-134-203c-11-17-12-38-2-57 10-18 28-29 49-29l286 0c21 0 39 11 49 29 10 19 9 40-2 57z m-238 411l96 0c5 0 9-4 9-9 0-4-4-8-9-8l-96 0c-5 0-9 4-9 8 0 5 4 9 9 9z m227-461c-7-13-21-21-36-21l-286 0c-15 0-29 8-36 21-7 14-6 29 2 42l135 205c1 1 1 3 1 4l0 178 82 0 0-178c0-1 0-3 1-4l135-205c8-13 9-28 2-42z m-74 120c-1 2-4 3-6 3l-198 0c-2 0-5-1-6-3l-58-87c-5-8-5-17-1-25 4-7 12-12 21-12l286 0c9 0 17 5 21 12 4 8 4 17-1 25z m46-104c-1-2-4-5-8-5l-286 0c-4 0-7 3-8 5-1 2-2 5 1 8l55 84 190 0 55-84c3-3 2-6 1-8z m-207 75c-13 0-24-10-24-23 0-13 11-24 24-24 13 0 23 11 23 24 0 13-10 23-23 23z m0-32c-5 0-9 4-9 9 0 4 4 8 9 8 5 0 8-4 8-8 0-5-3-9-8-9z m128 16c-13 0-23-10-23-23 0-13 10-24 23-24 13 0 24 11 24 24 0 13-11 23-24 23z m0-32c-5 0-8 4-8 9 0 4 3 8 8 8 5 0 9-4 9-8 0-5-4-9-9-9z m-48 40c-2 0-4-1-5-2-2-1-2-3-2-5 0-2 0-4 2-6 1-1 3-2 5-2 2 0 4 1 5 2 2 2 3 4 3 6 0 2-1 4-3 5-1 1-3 2-5 2z m-40 65c2 0 4 1 5 3 2 1 2 3 2 5 0 2 0 4-2 5-1 2-3 2-5 2-2 0-4 0-5-2-2-1-3-3-3-5 0-2 1-4 3-5 1-2 3-3 5-3z m32 64c2 0 4 1 5 3 2 1 3 3 3 5 0 2-1 4-3 5-1 2-3 3-5 3-2 0-4-1-5-3-2-1-2-3-2-5 0-2 0-4 2-5 1-2 3-3 5-3z m-24 65c2 0 4 0 5 2 2 1 3 3 3 5 0 2-1 4-3 5-1 2-3 3-5 3-2 0-4-1-5-3-2-1-3-3-3-5 0-2 1-4 3-5 1-2 3-2 5-2z m0-234c-2 0-4-1-5-2-2-1-3-3-3-5 0-2 1-4 3-6 1-1 3-2 5-2 2 0 4 1 5 2 2 2 3 4 3 6 0 2-1 4-3 5-1 1-3 2-5 2z m-96 0c-2 0-4-1-6-2-1-1-2-3-2-5 0-2 1-4 2-6 2-1 4-2 6-2 2 0 4 1 5 2 2 2 2 4 2 6 0 2 0 4-2 5-1 1-3 2-5 2z"/>
<glyph glyph-name="grid" unicode="&#120;" d="M0 512l0-512 512 0 0 512z m160-480l-128 0 0 128 128 0z m0 160l-128 0 0 128 128 0z m0 160l-128 0 0 128 128 0z m160-320l-128 0 0 128 128 0z m0 160l-128 0 0 128 128 0z m0 160l-128 0 0 128 128 0z m160-320l-128 0 0 128 128 0z m0 160l-128 0 0 128 128 0z m0 160l-128 0 0 128 128 0z"/>
<glyph glyph-name="picture" unicode="&#121;" d="M503 459l-494 0c-5 0-9-4-9-9l0-388c0-5 4-9 9-9l494 0c5 0 9 4 9 9l0 388c0 5-4 9-9 9z m-9-388l-476 0 0 370 476 0z m-353 193c27 0 49 22 49 49 0 27-22 49-49 49-27 0-49-22-49-49 0-27 22-49 49-49z m0 80c18 0 32-14 32-31 0-18-14-32-32-32-17 0-31 14-31 32 0 17 14 31 31 31z m-79-238c2 0 4 1 6 2l144 127 91-91c3-3 9-3 12 0 4 3 4 9 0 12l-42 43 81 89 99-91c4-4 9-4 13 0 3 4 3 9-1 13l-106 97c-2 1-4 2-6 2-3 0-5-1-6-3l-87-95-42 42c-3 4-8 4-12 1l-150-133c-4-3-4-8-1-12 2-2 4-3 7-3z"/>
<glyph glyph-name="website" unicode="&#122;" d="M503 351l-114 0 0 86c0 5-4 9-9 9l-371 0c-5 0-9-4-9-9l0-267c0-5 4-9 9-9l114 0 0-86c0-5 4-9 9-9l371 0c5 0 9 4 9 9l0 267c0 5-4 9-9 9z m-9-52l-353 0 0 34 353 0z m-123 129l0-35-353 0 0 35z m-353-249l0 197 353 0 0-25-239 0c-5 0-9-4-9-9l0-163z m123 102l107 0 0-197-107 0z m125-197l0 197 228 0 0-197z m-107 223c2 0 5 1 6 3 2 2 3 4 3 6 0 2-1 5-3 6-1 2-4 3-6 3-2 0-5-1-6-3-2-1-3-4-3-6 0-2 1-4 3-6 1-2 4-3 6-3z m22 0c2 0 5 1 6 3 2 2 3 4 3 6 0 2-1 5-3 6-1 2-4 3-6 3-2 0-5-1-6-3-2-1-3-4-3-6 0-2 1-4 3-6 1-2 4-3 6-3z m22 0c2 0 5 1 6 3 2 2 3 4 3 6 0 2-1 5-3 6-1 2-4 3-6 3-2 0-5-1-6-3-2-1-3-4-3-6 0-2 1-4 3-6 1-2 4-3 6-3z m-37-62l57 0c5 0 9 4 9 9 0 5-4 9-9 9l-57 0c-5 0-9-4-9-9 0-5 4-9 9-9z m57-14l-57 0c-5 0-9-4-9-9 0-5 4-9 9-9l57 0c5 0 9 4 9 9 0 5-4 9-9 9z m0-32l-57 0c-5 0-9-4-9-9 0-5 4-9 9-9l57 0c5 0 9 4 9 9 0 5-4 9-9 9z m199 64l-133 0c-5 0-9-4-9-9 0-5 4-9 9-9l133 0c5 0 9 4 9 9 0 5-4 9-9 9z m0-32l-133 0c-5 0-9-4-9-9 0-5 4-9 9-9l133 0c5 0 9 4 9 9 0 5-4 9-9 9z m0-32l-133 0c-5 0-9-4-9-9 0-5 4-9 9-9l133 0c5 0 9 4 9 9 0 5-4 9-9 9z m-386 203c2 0 5 1 6 2 2 2 3 4 3 7 0 2-1 4-3 6-1 2-4 3-6 3-2 0-5-1-6-3-2-2-3-4-3-6 0-3 1-5 3-7 1-1 4-2 6-2z m22 0c2 0 5 1 6 2 2 2 3 4 3 7 0 2-1 4-3 6-1 2-4 3-6 3-2 0-5-1-6-3-2-2-3-4-3-6 0-3 1-5 3-7 1-1 4-2 6-2z m22 0c2 0 5 1 6 2 2 2 3 4 3 7 0 2-1 4-3 6-1 2-4 3-6 3-2 0-5-1-6-3-2-2-3-4-3-6 0-3 1-5 3-7 1-1 4-2 6-2z m20-45l-57 0c-5 0-9-4-9-8 0-5 4-9 9-9l57 0c5 0 9 4 9 9 0 4-4 8-9 8z m0-31l-57 0c-5 0-9-4-9-9 0-5 4-9 9-9l57 0c5 0 9 4 9 9 0 5-4 9-9 9z m0-32l-57 0c-5 0-9-4-9-9 0-5 4-9 9-9l57 0c5 0 9 4 9 9 0 5-4 9-9 9z"/>
<glyph glyph-name="line-chart" unicode="&#65;" d="M465 438c-25 0-46-21-46-47 0-15 7-28 18-36l-115-202c-8 9-20 15-33 15-10 0-18-3-25-8l-86 112c5 7 8 16 8 26 0 26-21 46-46 46-26 0-47-20-47-46 0-10 3-19 8-26l-42-51c-4 2-8 2-12 2-26 0-47-20-47-46 0-26 21-47 47-47 25 0 46 21 46 47 0 14-7 27-17 36l39 46c7-5 15-8 25-8 9 0 17 3 24 8l86-112c-5-7-8-16-8-26 0-26 21-47 47-47 25 0 46 21 46 47 0 5-1 9-2 13 0 0 1 1 1 1l119 211c4-1 8-2 12-2 26 0 47 21 47 47 0 26-21 47-47 47z m-418-289c-16 0-28 12-28 28 0 15 12 28 28 28 15 0 27-13 27-28 0-16-12-28-27-28z m93 121c-16 0-28 12-28 28 0 15 12 28 28 28 15 0 28-13 28-28 0-16-13-28-28-28z m149-177c-16 0-28 13-28 28 0 15 12 28 28 28 15 0 28-13 28-28 0-15-13-28-28-28z m176 270c-15 0-27 13-27 28 0 15 12 28 27 28 16 0 28-13 28-28 0-15-12-28-28-28z"/>
<glyph glyph-name="log-out" unicode="&#66;" d="M343 156c-2 0-4 1-5 2-3 2-5 5-5 9l0 47-193 0c-6 0-11 5-11 11l0 67c0 5 5 10 11 10l193 0 0 48c0 3 2 7 5 9 3 1 7 1 10 0l158-92c4-2 6-5 6-9 0-4-2-7-6-9l-158-91c-1-1-3-2-5-2z m-193 79l193 0c6 0 10-5 10-10l0-40 127 73-127 73 0-39c0-6-4-11-10-11l-193 0z m132-129l-264 0c-10 0-18 8-18 18l0 264c0 10 8 18 18 18l264 0c10 0 18-8 18-18l0-62c0-6-4-11-10-11-6 0-11 5-11 11l0 59-258 0 0-258 258 0 0 64c0 6 5 10 11 10 6 0 10-4 10-10l0-67c0-10-8-18-18-18z"/>
<glyph glyph-name="page" unicode="&#67;" d="M362 512l-293 0 0-510 372 0 0 417z m-4-21l61-72-61 0z m67-473l-340 0 0 477 256 0 0-92 84 0z m-105 381l0 13-212 0 0-13z m0-36l0 13-212 0 0-13z m0-35l0 12-212 0 0-12z m-208-264l273 0 0-13-273 0z m23 164l37 0 0-133-37 0z m119 0l37 0 0-133-37 0z m60 35l37 0 0-168-37 0z m-120 15l37 0 0-183-37 0z"/>
<glyph glyph-name="log-out-1" unicode="&#68;" d="M343 156c-2 0-4 1-5 2-3 2-5 5-5 9l0 47-193 0c-6 0-11 5-11 11l0 67c0 5 5 10 11 10l193 0 0 48c0 3 2 7 5 9 3 1 7 1 10 0l158-92c4-2 6-5 6-9 0-4-2-7-6-9l-158-91c-1-1-3-2-5-2z m-193 79l193 0c6 0 10-5 10-10l0-40 127 73-127 73 0-39c0-6-4-11-10-11l-193 0z m132-129l-264 0c-10 0-18 8-18 18l0 264c0 10 8 18 18 18l264 0c10 0 18-8 18-18l0-62c0-6-4-11-10-11-6 0-11 5-11 11l0 59-258 0 0-258 258 0 0 64c0 6 5 10 11 10 6 0 10-4 10-10l0-67c0-10-8-18-18-18z"/>
<glyph glyph-name="bill" unicode="&#69;" d="M408 306l-97 0c-4 0-8-4-8-8 0-5 4-8 8-8l97 0c4 0 7 3 7 8 0 4-3 8-7 8z m0-47l-97 0c-4 0-8-4-8-8 0-5 4-8 8-8l97 0c4 0 7 3 7 8 0 4-3 8-7 8z m0-47l-97 0c-4 0-8-4-8-8 0-5 4-8 8-8l97 0c4 0 7 3 7 8 0 4-3 8-7 8z m-153 94l-51 0c-5 0-8-4-8-8 0-5 3-8 8-8l51 0c4 0 8 3 8 8 0 4-4 8-8 8z m0-47l-51 0c-5 0-8-4-8-8 0-5 3-8 8-8l51 0c4 0 8 3 8 8 0 4-4 8-8 8z m0-47l-51 0c-5 0-8-4-8-8 0-5 3-8 8-8l51 0c4 0 8 3 8 8 0 4-4 8-8 8z m0-47l-51 0c-5 0-8-4-8-8 0-5 3-8 8-8l51 0c4 0 8 3 8 8 0 4-4 8-8 8z m153 193l-204 0c-5 0-8-4-8-8 0-4 3-8 8-8l204 0c4 0 7 4 7 8 0 4-3 8-7 8z m0-243l-204 0c-5 0-8-3-8-7 0-5 3-8 8-8l204 0c4 0 7 3 7 8 0 4-3 7-7 7z m-153-39l-51 0c-5 0-8-4-8-8 0-4 3-8 8-8l51 0c4 0 8 4 8 8 0 4-4 8-8 8z m52 390c-32 0-58-19-58-42 0-23 26-42 58-42 33 0 58 19 58 42 0 23-25 42-58 42z m0-68c-22 0-42 12-42 26 0 14 20 26 42 26 23 0 43-12 43-26 0-14-20-26-43-26z m160-332c-4 0-8-3-8-7l0-35c0-5-3-8-8-8l-295 0c-4 0-8 3-8 8l0 434c0 15-7 28-17 38l289 0c21 0 39-17 39-38l0-368c0-4 4-8 8-8 4 0 8 4 8 8l0 368c0 30-25 54-55 54l-328 0c-30 0-55-24-55-54l0-18c0-4 4-8 8-8 4 0 8 4 8 8l0 18c0 21 18 38 39 38 22 0 40-17 40-38l0-169c0 0-1-1-1-1-2-4-6-5-10-5-3 0-6 1-8 3-2 2-4 3-6 3-2 0-4-1-5-3-3-2-6-3-9-3-2 0-4 0-6 1l0 43c0 4-4 8-8 8-4 0-8-4-8-8l0-43c-2-1-4-1-6-1-7 0-12 5-12 12l0 108c0 5-4 8-8 8-4 0-8-3-8-8l0-108c0-16 13-28 28-28 5 0 10 1 14 4 4-3 9-4 14-4 5 0 10 1 14 4 4-3 9-4 14-4 4 0 8 1 11 2l0-245c0-13 11-24 24-24l295 0c13 0 24 11 24 24l0 35c0 4-4 7-8 7z"/>
<glyph glyph-name="check" unicode="&#70;" d="M512 384l-34 0 0 103c0 14-12 25-26 25l-34 0c-14 0-25-11-25-25l0-103-393 0 0-282 393 0 0-19 34-60 0-14c0-5 3-9 8-9 5 0 9 4 9 9l0 14 34 60 0 19 34 0z m-51 34l-51 0 0 17 51 0z m-51 69c0 4 3 8 8 8l34 0c5 0 9-4 9-8l0-35-51 0z m-393-368l0 248 376 0 0-248z m418-76l-19 34 39 0z m26 51l-51 0 0 307 51 0z m34 25l-17 0 0 248 17 0z m-162 171l-26 0c-5 0-8-4-8-8 0-5 3-9 8-9l26 0c5 0 8 4 8 9 0 4-3 8-8 8z m-154 17l26 0c5 0 8 4 8 9 0 4-3 8-8 8l-26 0c-5 0-8-4-8-8 0-5 3-9 8-9z m154 17l-60 0c-5 0-8-4-8-8 0-5 3-9 8-9l60 0c5 0 8 4 8 9 0 4-3 8-8 8z m-94-17c2 0 4 1 6 3 2 1 2 4 2 6 0 2 0 4-2 6-3 3-9 3-12 0-2-2-3-4-3-6 0-2 1-5 3-6 1-2 4-3 6-3z m-34-25c0-5 4-9 8-9l60 0c5 0 9 4 9 9 0 4-4 8-9 8l-60 0c-4 0-8-4-8-8z m-26-9c2 0 5 1 6 3 2 1 3 3 3 6 0 2-1 4-3 6-3 3-9 3-12 0-1-2-2-4-2-6 0-3 1-5 2-6 2-2 4-3 6-3z m-85 42l0 9c0 5-4 9-9 9-4 0-8-4-8-9l0-9c-10-2-18-7-24-14-5-7-8-14-7-23 1-8 5-16 12-21l19-15 0-46c-10 3-17 13-17 24 0 5-4 9-9 9-5 0-8-4-8-9 0-21 14-38 34-42l0-7c0-5 4-9 8-9 5 0 9 4 9 9l0 7c9 2 18 7 24 14 5 7 8 14 7 23-1 8-5 16-12 21l-19 15 0 46c10-3 17-13 17-24 0-5 4-8 8-8 5 0 9 3 9 8 0 21-15 38-34 42z m8-93c3-2 5-5 6-9 0-4-1-7-3-10-3-3-7-6-11-7l0 33z m-34 49c-3 2-5 5-5 9 0 4 1 7 3 10 3 3 7 6 11 7l0-33z m138-44c-19-10-25-28-27-48-4 3-7 6-11 9-8 7-20-5-12-12 8-7 16-13 24-20 6-5 14-2 15 6 0 19 1 41 20 50 9 5 1 20-9 15z m57-34c-12-3-25-18-34-1-5 10-19 1-15-9 5-9 13-15 23-16 5-1 10 0 15 2 3 1 16 11 19 6 5-10 20-1 15 9-5 8-14 11-23 9z"/>
<glyph glyph-name="list" unicode="&#71;" d="M142 356l-15-4c1-5 2-9 2-14 0-31-25-57-57-57-31 0-56 26-56 57 0 31 25 56 56 56 17 0 32-7 43-19l12 11c-14 15-34 24-55 24-40 0-72-32-72-72 0-40 32-73 72-73 40 0 73 33 73 73 0 6-1 12-3 18z m56 37l314 0 0-16-314 0z m0-33l56 0 0-15-56 0z m0-32l314 0 0-15-314 0z m0-32l249 0 0-16-249 0z m-10 144l-108-107-26 26-11-11 37-37 119 118z m-46-278l-15-4c1-4 2-9 2-14 0-31-25-56-57-56-31 0-56 25-56 56 0 32 25 57 56 57 17 0 32-7 43-19l12 10c-14 16-34 25-55 25-40 0-72-33-72-73 0-40 32-72 72-72 40 0 73 32 73 72 0 6-1 12-3 18z m56 38l314 0 0-15-314 0z m0-33l56 0 0-16-56 0z m0-31l314 0 0-16-314 0z m0-34l249 0 0-15-249 0z m-10 145l-108-108-26 27-11-11 37-38 119 118z"/>
<glyph glyph-name="padnote" unicode="&#72;" d="M389 477l-90 0c-4 20-22 35-43 35-21 0-39-15-43-35l-90 0c-24 0-43-20-43-44l0-389c0-24 19-44 43-44l266 0c24 0 43 20 43 44l0 389c0 24-19 44-43 44z m-195-26c0 5 4 9 9 9l18 0c4 0 8 4 8 8 0 15 12 27 27 27 15 0 27-12 27-27 0-4 4-8 8-8l18 0c5 0 9-4 9-9l0-18c0-5-4-9-9-9l-106 0c-5 0-9 4-9 9 0 0 0 0 0 0 0 0 0 0 0 0z m9-44l106 0c12 0 21 7 25 18l46 0 0-373-248 0 0 373 46 0c4-11 13-18 25-18z m213-363c0-15-12-27-27-27l-266 0c-15 0-27 12-27 27l0 389c0 15 12 27 27 27l56 0c-1-3-2-6-2-9l0-10-54 0c-4 0-8-3-8-8l0-389c0-5 4-9 8-9l266 0c4 0 8 4 8 9l0 389c0 5-4 8-8 8l-54 0 0 10c0 3-1 6-2 9l56 0c15 0 27-12 27-27z m-160 407c5 0 8 4 8 8l0 9c0 5-3 9-8 9-5 0-8-4-8-9l0-9c0-4 3-8 8-8z m-53-115l106 0c14 0 26 12 26 26 0 14-12 26-26 26l-106 0c-14 0-26-12-26-26 0-14 12-26 26-26z m0 36l106 0c5 0 9-5 9-10 0-5-4-9-9-9l-106 0c-5 0-9 4-9 9 0 5 4 10 9 10z m88-71c5 0 9 3 9 8 0 5-4 8-9 8l-70 0c-5 0-9-3-9-8 0-5 4-8 9-8z m-132-44l168 0c4 0 8 3 8 8 0 4-4 8-8 8l-168 0c-5 0-9-4-9-8 0-5 4-8 9-8z m0-36l106 0c4 0 8 4 8 8 0 5-4 9-8 9l-106 0c-5 0-9-4-9-9 0-4 4-8 9-8z m159 8c0-4 4-8 9-8l26 0c5 0 9 4 9 8 0 5-4 9-9 9l-26 0c-5 0-9-4-9-9z m-159-43l168 0c4 0 8 3 8 8 0 5-4 8-8 8l-168 0c-5 0-9-3-9-8 0-5 4-8 9-8z m0-36l106 0c4 0 8 4 8 9 0 4-4 8-8 8l-106 0c-5 0-9-4-9-8 0-5 4-9 9-9z m194 17l-26 0c-5 0-9-4-9-8 0-5 4-9 9-9l26 0c5 0 9 4 9 9 0 4-4 8-9 8z m-194-52l168 0c4 0 8 4 8 8 0 5-4 9-8 9l-168 0c-5 0-9-4-9-9 0-4 4-8 9-8z m106-19l-106 0c-5 0-9-4-9-8 0-5 4-8 9-8l106 0c4 0 8 3 8 8 0 4-4 8-8 8z m88 0l-26 0c-5 0-9-4-9-8 0-5 4-8 9-8l26 0c5 0 9 3 9 8 0 4-4 8-9 8z"/>
<glyph glyph-name="pencil-case" unicode="&#73;" d="M115 274l326 0c0 0 0 0 0 0 1 0 1 0 1 0 0 0 0 0 0 0 1 0 1 0 1 0 0 0 1 0 1 0 0 0 0 0 0 0l52 22c3 1 5 4 5 8 0 3-2 6-5 7l-52 22c-1 0-1 0-2 0 0 0 0 0 0 0 0 1 0 1-1 1 0 0 0 0 0 0l-326 0c-11 0-21-10-21-22l0-17c0-12 10-21 21-21z m317 16l-253 0 0 27 253 0z m-269 0l-16 0 0 27 16 0z m286 4l0 19 23-9z m-338 18c0 3 2 5 4 5l15 0 0-27-15 0c-2 0-4 2-4 5z m-10 49l52-11c1 0 1 0 2 0l292 0c12 0 21 9 21 21l0 1 25 0c4 0 8 3 8 8 0 4-4 8-8 8l-25 0 0 1c0 11-9 21-21 21l-15 0 0 3c0 16-13 30-29 30l-82 0c-4 0-8-4-8-9 0-4 4-8 8-8l82 0c7 0 13-6 13-13l0-3-261 0c-1 0-1 0-2 0l-52-11c-4-1-7-4-7-8l0-22c0-4 3-7 7-8z m346 33c3 0 5-3 5-5l0-18c0-2-2-5-5-5l-15 0 0 28z m-31-28l-253 0 0 28 253 0z m-305 18l36 8 0-24-36 8z m312-231c0-5-3-9-8-9-5 0-8 4-8 9 0 4 3 8 8 8 5 0 8-4 8-8z m-33-22c0-5-3-8-8-8-4 0-8 3-8 8 0 4 4 8 8 8 5 0 8-4 8-8z m114 115l-438 0 3 41c1 8-2 15-7 21-6 6-13 9-21 9-8 0-16-3-21-9-5-6-8-13-7-21l3-41-8 0c-4 0-8-3-8-8 0-4 4-8 8-8l3 0 0-87c0-41 33-74 73-74l344 0c40 0 73 33 73 74l0 87 3 0c4 0 8 4 8 8 0 5-4 8-8 8z m-472 51c2 3 5 4 9 4 3 0 7-1 9-4 2-2 3-6 3-9l-3-42-18 0-3 42c0 3 1 7 3 9z m453-154c0-32-26-57-57-57l-344 0c-31 0-57 25-57 57l0 87 30 0c0 0 428 0 428 0z m-335 54l310 0c5 0 8 4 8 9 0 4-3 8-8 8l-310 0c-5 0-8-4-8-8 0-5 3-9 8-9z m-98 17c-5 0-8-4-8-8 0-5 3-9 8-9l65 0c5 0 8 4 8 9 0 4-3 8-8 8z"/>
<glyph glyph-name="user" unicode="&#74;" d="M345 212l-2 0c-3 2-6 3-9 4-4 2-7 3-11 4-3 1-5 2-8 3-5 1-9 2-14 3-1 1-3 1-5 1l-1 0c-2 1-5 1-8 2l-1 0c0 0 0 0 0 0l0 0c-3 0-5 1-7 1l-8 1c-10 0-21 0-30 0l-3-1-2 0-3 0c-3 0-6-1-9-1l-1 0c-2-1-4-1-6-2-2 0-5 0-7-1-4-1-9-2-13-3-3-1-6-2-9-3l-3-1c-6-2-13-5-19-8l-2-1 0 0c-73-35-121-110-121-192 0-1 0-3 1-5l0-13 424 0 0 13c1 2 1 4 1 5 0 83-49 159-124 194z m-281-191c1 73 44 140 110 171l2 1 1 0c5 2 10 4 15 6l2 1c3 1 6 2 9 3 4 1 8 2 12 3 2 0 4 1 6 1 1 0 3 1 5 1l0 0c3 0 6 1 9 1l7 1c9 0 17 1 28 0l6-1c2 0 4 0 6 0l2-1c3 0 5-1 7-1l2 0c1-1 2-1 4-1 4-1 8-2 12-3 2-1 5-2 8-3 3-1 6-2 9-3 3-1 6-3 9-4l1 0c67-31 111-98 112-172l-384 0z m141 236c1 0 3-1 4-1l4-2c1 0 2-1 4-1 12-4 25-6 38-6l1 0c5 0 9 0 14 1 1 0 3 0 4 0l3 1c2 0 4 0 6 1 1 0 2 0 4 1l3 0c2 1 4 1 6 2 1 0 2 1 3 1l3 1c2 1 4 1 6 2 1 1 1 1 2 1l1 1c3 1 6 2 8 4l2 1c3 2 6 4 10 6 1 1 3 2 4 3l6 4c30 26 48 63 48 101l0 1c0 74-60 133-133 133-69 0-128-55-132-124l0-2c0-2 0-4 0-7 0-53 31-101 81-122z m-60 128l0 1c4 59 52 105 111 105 62 0 112-50 112-111l0-1c0-33-15-64-41-86l-5-4c-1 0-2-1-3-2-3-2-5-4-8-5l-2-1c-2-1-4-2-7-3l-2-2c-2 0-4-1-5-1l-4-2c0 0-1 0-2 0-1-1-2-1-4-1l-4-1c-1-1-1-1-2-1-2 0-3-1-4-1l-4 0c-1-1-2-1-3-1-4 0-7 0-11 0l-1 0 0 0c-11 0-22 1-33 5-1 0-2 0-3 1l-4 1c-1 1-2 1-3 1-42 18-69 58-69 103 0 2 1 4 1 6z"/>
<glyph glyph-name="form-1" unicode="&#75;" d="M97 440l-35 0c-3 0-6-3-6-6l0-428c0-3 3-6 6-6l388 0c3 0 6 3 6 6l0 428c0 3-3 6-6 6l-35 0c-3 0-6-3-6-6l0-57-306 0 0 57c0 3-3 6-6 6z m318-76c3 0 6 3 6 7l0 56 22 0 0-415-374 0 0 415 22 0 0-56c0-4 3-7 6-7 0 0 318 0 318 0z m-94 148l-130 0c-3 0-6-3-6-6l0-38-59 0c-3 0-6-3-6-7l0-45c0-3 3-6 6-6l97 0c3 0 6 3 6 6l0 39 54 0 0-39c0-3 3-6 6-6l97 0c3 0 6 3 6 6l0 45c0 4-3 7-6 7l-59 0 0 38c0 3-3 6-6 6z m59-57l0-33-85 0 0 39c0 4-3 7-6 7l-66 0c-3 0-6-3-6-7l0-39-85 0 0 33 59 0c3 0 6 3 6 6l0 39 118 0 0-39c0-3 3-6 6-6z m-289-234l0-30c0-3 3-6 6-6l318 0c3 0 6 3 6 6l0 30c0 3-3 6-6 6l-318 0c-3 0-6-3-6-6z m12-6l306 0 0-17-306 0z m312-49l-318 0c-3 0-6-3-6-6l0-30c0-3 3-6 6-6l318 0c3 0 6 3 6 6l0 30c0 3-3 6-6 6z m-6-30l-306 0 0 18 306 0z m6-31l-318 0c-3 0-6-3-6-6l0-30c0-3 3-6 6-6l318 0c3 0 6 3 6 6l0 30c0 3-3 6-6 6z m-6-30l-306 0 0 17 306 0z m-153 178c27 0 48 21 48 48 0 26-21 48-48 48-27 0-48-22-48-48 0-27 21-48 48-48z m0 85c21 0 37-17 37-37 0-21-16-37-37-37-21 0-37 16-37 37 0 20 16 37 37 37z"/>
<glyph glyph-name="list-1" unicode="&#76;" d="M124 512l-81 0c-12 0-21-10-21-21l0-81c0-12 9-22 21-22l81 0c12 0 21 10 21 22l0 81c0 11-9 21-21 21z m9-102c0-5-4-9-9-9l-81 0c-5 0-9 4-9 9l0 81c0 4 4 8 9 8l81 0c5 0 9-4 9-8z m-9-92l-81 0c-12 0-21-10-21-22l0-80c0-12 9-22 21-22l81 0c12 0 21 10 21 22l0 80c0 12-9 22-21 22z m9-102c0-5-4-9-9-9l-81 0c-5 0-9 4-9 9l0 80c0 5 4 9 9 9l81 0c5 0 9-4 9-9z m-9-92l-81 0c-12 0-21-10-21-22l0-81c0-11 9-21 21-21l81 0c12 0 21 10 21 21l0 81c0 12-9 22-21 22z m9-103c0-4-4-8-9-8l-81 0c-5 0-9 4-9 8l0 81c0 5 4 9 9 9l81 0c5 0 9-4 9-9z m351 439l-264 0c-3 0-6-3-6-6 0-4 3-7 6-7l264 0c4 0 6 3 6 7 0 3-2 6-6 6z m-263-200c-1 2-3 2-5 2-1 0-3 0-4-2-1-1-2-2-2-4 0-2 1-3 2-4 1-2 3-2 4-2 2 0 4 0 5 2 1 1 2 2 2 4 0 2-1 3-2 4z m233 2c-3 0-6-3-6-6 0-3 3-6 6-6 4 0 6 3 6 6 0 3-2 6-6 6z m-132 0c-3 0-6-3-6-6 0-3 3-6 6-6 4 0 6 3 6 6 0 3-2 6-6 6z m-26 0c-4 0-7-3-7-6 0-3 3-6 7-6 3 0 6 3 6 6 0 3-3 6-6 6z m53 0c-4 0-7-3-7-6 0-3 3-6 7-6 3 0 6 3 6 6 0 3-3 6-6 6z m-80 0c-3 0-6-3-6-6 0-3 3-6 6-6 4 0 7 3 7 6 0 3-3 6-7 6z m-26 0c-4 0-6-3-6-6 0-3 2-6 6-6 3 0 6 3 6 6 0 3-3 6-6 6z m132 0c-4 0-6-3-6-6 0-3 2-6 6-6 3 0 6 3 6 6 0 3-3 6-6 6z m53 0c-4 0-7-3-7-6 0-3 3-6 7-6 3 0 6 3 6 6 0 3-3 6-6 6z m-27 0c-3 0-6-3-6-6 0-3 3-6 6-6 4 0 7 3 7 6 0 3-3 6-7 6z m84-2c-1 2-3 2-4 2-2 0-4 0-5-2-1-1-2-2-2-4 0-2 1-3 2-4 1-2 3-2 5-2 1 0 3 0 4 2 1 1 2 2 2 4 0 2-1 3-2 4z m-4-192l-265 0c-3 0-6-3-6-6 0-4 3-7 6-7l265 0c3 0 6 3 6 7 0 3-3 6-6 6z"/>
<glyph glyph-name="mail" unicode="&#77;" d="M504 246l-25 25c-10 11-26 11-36 0l-135-134-19-68-4-5c-3-3-3-9 0-12l0 0 0 0c2-2 4-3 6-3 2 0 5 1 6 3l5 4 68 19 134 135c11 10 11 26 0 36z m-176-114l90 90 37-37-90-90z m-8-17l28-28-38-10z m172 107l-25-25-37 37 25 25c3 3 9 3 12 0l25-25c3-3 3-9 0-12z m-238-100l-220 0c40 31 129 103 175 143l13-11c9-8 20-12 32-12 11 0 23 4 31 12l205 181 0-138c0-5 4-9 8-9 5 0 9 4 9 9l0 157c0 0 0 0 0 0 0 1 0 2 0 3 0 0-1 0-1 0 0 0 0 1 0 1 0 0-1 1-1 2 0 0-1 0-1 0 0 1-1 1-2 2 0 0 0 0-1 0-1 0-2 1-3 1l-489 0c-1 0-2-1-3-1-1 0-1 0-1 0-1-1-1-1-2-2 0 0 0 0-1 0 0-1-1-1-1-2 0 0 0-1 0-1 0 0 0 0 0 0-1-1-1-2-1-3 0 0 0 0 0 0l0-341c0 0 0 0 0 0 0-1 0-2 0-3 1 0 1 0 1 0 0-1 0-1 0-1 0-1 1-1 1-2 1 0 1 0 1-1 1 0 1 0 2-1 0 0 0 0 1 0 1-1 2-1 3-1l245 0c4 0 8 4 8 9 0 5-4 9-8 9z m-237 9l0 304 179-158c-48-43-143-118-179-146z m458 314l-201-178c-11-10-29-10-41 0l-17 15c0 1 0 1 0 1 0 0 0 0-1 0l-183 162z"/>
<glyph glyph-name="presentation-1" unicode="&#78;" d="M68 375l128 0c5 0 9 4 9 9 0 5-4 9-9 9l-128 0c-4 0-8-4-8-9 0-5 4-9 8-9z m0 26l77 0c5 0 9 4 9 9 0 4-4 8-9 8l-77 0c-4 0-8-4-8-8 0-5 4-9 8-9z m137-43c0 5-4 9-9 9l-128 0c-4 0-8-4-8-9 0-4 4-8 8-8l128 0c5 0 9 4 9 8z m307 120l-247 0 0 25c0 5-4 9-9 9-5 0-9-4-9-9l0-25-247 0 0-359 235 0-104-104c-4-4-4-9 0-13 1-1 3-2 6-2 2 0 4 1 6 2l104 105 0-81c0-5 4-9 9-9 5 0 9 4 9 9l0 81 104-105c2-1 4-2 6-2 3 0 5 1 7 2 3 4 3 9 0 13l-105 104 235 0z m-17-341l-478 0 0 324 478 0z m-145 204l39 0-102-102-71 71c-3 3-9 3-12 0l-108-108c-3-3-3-8 0-12 2-1 4-2 6-2 3 0 5 1 6 2l102 102 71-71c1-2 4-3 6-3 2 0 4 1 6 3l108 108 0-39c0-5 4-8 9-8 4 0 8 3 8 8l0 60c0 1 0 2-1 3 0 2-2 4-4 5-1 0-2 0-3 0l-60 0c-5 0-9-3-9-8 0-5 4-9 9-9z"/>
<glyph glyph-name="logout" unicode="&#79;" d="M506 268l-55 39c-10 7-24 0-24-12l0-78c0-12 14-19 24-12l55 39c8 6 8 18 0 24z m-76-108c-7 4-16 1-20-6-35-61-101-102-176-102-113 0-204 92-204 204 0 112 91 204 204 204 75 0 141-41 176-102 4-7 13-10 20-6 8 4 10 14 6 21-41 70-116 117-202 117-130 0-234-105-234-234 0-129 104-234 234-234 86 0 161 47 202 117 4 7 2 17-6 21z m-266 111c-8 0-15-7-15-15 0-8 7-15 15-15l233 0 0 30z"/>
<glyph glyph-name="home" unicode="&#80;" d="M512 384l-256 128-256-128 0-64 32 16 0-336 448 0 0 336 32-16z m-64-352l-384 0 0 320 192 96 192-96z"/>
<glyph glyph-name="windows" unicode="&#81;" d="M64 491l0-64-64 0 0-406 448 0 0 64 64 0 0 406z m341-427l-362 0 0 320 21 0 0-299 341 0z m64 64l-362 0 0 213 362 0z m0 235l-362 0 0 85 362 0z m-170 64l-43 0 0-43 43 0z m-64 0l-43 0 0-43 43 0z m-64 0l-43 0 0-43 43 0z"/>
<glyph glyph-name="chart" unicode="&#82;" d="M492 147l-369 0 0 310c0 11-9 20-20 20-11 0-20-9-20-20l0-310-63 0c-11 0-20-9-20-20 0-11 9-20 20-20l63 0 0-52c0-11 9-20 20-20 11 0 20 9 20 20l0 52 369 0c11 0 20 9 20 20 0 11-9 20-20 20z m-320 34c15 0 27 12 27 26 0 6-2 12-6 16l48 117 50-102c-3-4-4-8-4-13 0-15 12-27 27-27 14 0 26 12 26 27 0 3 0 7-2 10l19 24c1 0 3 0 4 0 2 0 3 0 4 0l17-24c-1-3-2-7-2-10 0-15 12-27 27-27 15 0 26 12 26 27 0 5-1 10-4 15l36 72c14 1 25 13 25 27 0 14-12 26-27 26-15 0-27-12-27-26 0-6 2-11 5-15l-36-73c0 0-1 0-1 0l-18 25c1 3 2 6 2 9 0 15-12 27-27 27-15 0-27-12-27-27 0-3 1-6 2-9l-19-25c-1 0-2 0-3 0l-51 106c3 4 5 9 5 15 0 15-12 27-27 27-14 0-26-12-26-27 0-6 1-11 5-15l-51-123c-14-2-24-13-24-27 0-14 12-26 27-26z"/>
<glyph glyph-name="repo-forked" unicode="&#104;" d="M448 448c0 35-28 64-64 64-35 0-64-29-64-64 0-24 13-45 32-56l0-53-96-106-96 106 0 53c19 11 32 32 32 56 0 35-28 64-64 64-35 0-64-29-64-64 0-24 13-45 32-56l0-78 128-141 0-54c-19-11-32-32-32-56 0-35 29-64 64-64 36 0 64 29 64 64 0 24-13 45-32 56l0 54 128 141 0 78c19 11 32 32 32 56z m-320 31c17 0 31-14 31-31 0-17-14-31-31-31-17 0-31 14-31 31 0 17 14 31 31 31z m128-445c-17 0-31 14-31 31 0 17 14 31 31 31 17 0 31-14 31-31 0-17-14-31-31-31z m128 445c17 0 31-14 31-31 0-17-14-31-31-31-17 0-31 14-31 31 0 17 14 31 31 31z"/>
<glyph glyph-name="flow-branch" unicode="&#83;" d="M420 410c0-28-13-46-38-57-2-20-7-37-14-51-8-15-18-27-32-36-13-9-25-15-34-19-10-4-23-9-39-14-14-4-25-8-32-11-7-3-15-7-24-12-9-6-16-12-20-21-4-8-6-18-8-30 24-11 36-29 36-57 0-17-6-31-18-43-12-12-26-18-43-18-17 0-32 6-44 18-12 12-18 26-18 43 0 27 12 46 37 58 0 0 0 193 0 193-25 12-37 31-37 57 0 17 6 31 18 43 12 12 27 18 44 18 17 0 31-6 43-18 12-12 18-26 18-43 0-26-12-45-37-57 0 0 0-104 0-104 14 10 37 20 71 31 20 6 34 11 43 14 9 4 17 11 26 21 8 11 13 24 15 39-24 11-36 30-36 56 0 17 6 31 18 43 12 12 26 18 43 18 17 0 32-6 44-18 12-12 18-26 18-43m-301 0c0-10 3-18 10-25 7-7 15-10 25-10 9 0 18 3 25 10 7 7 10 15 10 25 0 10-3 18-10 25-7 7-16 10-25 10-10 0-18-3-25-10-7-7-10-15-10-25m35-342c9 0 18 3 25 10 7 7 10 15 10 24 0 11-3 19-10 26-7 7-16 10-25 10-10 0-18-3-25-10-7-7-10-15-10-26 0-9 3-17 10-24 7-7 15-10 25-10m204 307c10 0 18 3 25 10 8 7 11 15 11 25 0 10-3 18-11 25-7 7-15 10-25 10-9 0-17-3-24-10-7-7-10-15-10-25 0-10 3-18 10-25 7-7 15-10 24-10"/>
<glyph glyph-name="user-outline" unicode="&#84;" d="M505 86c-36 85-105 125-158 143 24 33 37 81 37 140 1 99-81 126-124 127-44 0-126-25-127-125 0-59 12-107 35-140-54-18-123-56-161-141l-9-20 21-8c4-2 109-45 237-46 127-1 233 40 237 41l21 8z m-246 367c9 0 83-4 83-84-1-64-18-112-48-133l-37-26-36 27c-29 21-46 70-45 134 0 80 75 82 83 82z m-3-394c-86 1-163 22-199 34 39 69 105 95 156 106l44 9 45-10c50-11 116-39 154-108-36-12-113-32-200-31z"/>
<glyph glyph-name="user-1" unicode="&#85;" d="M498 59c-3 2-62 40-149 59 32 40 53 94 61 131 12 50 8 147-40 209-28 35-68 54-114 54-46 0-86-19-114-54-48-62-52-159-40-209 8-37 29-91 61-131-87-19-146-57-149-59-11-8-17-23-13-36 4-14 17-23 31-23l448 0c14 0 27 9 31 23 4 13-2 28-13 36z m-174 79l-5-7c-38-44-88-44-126 0l-5 7c-45 56-67 131-57 202 8 68 48 140 125 140 77 0 117-72 125-140 10-71-12-146-57-202z m-292-106c2 1 56 37 137 55l40 8c14-9 30-15 47-15 17 0 33 6 47 15l40-8c80-18 134-53 137-55z"/>
</font>
</defs>
</svg>
